Fucking Machines Collection

Discussion in 'BDSM and Fetish movies, pictures and drawings' started by Plamko, Jul 10, 2010.

LIFE TIME Keep2Share PREMIUM
  1. Plamko

    Plamko New Member

    Code:
    General
    Complete name                    : Fucking Machines -  Dorothy Black & Britney 1280x720 + HQ Gallery.avi
    Format                           : AVI
    Format/Info                      : Audio Video Interleave
    File size                        : 544 MiB
    Duration                         : 12mn 15s
    Overall bit rate                 : 6 205 Kbps
    Writing library                  : VirtualDub build 32559/release
    
    Video
    ID                               : 0
    Format                           : MPEG-4 Visual
    Format settings, BVOP            : Yes
    Format settings, QPel            : No
    Format settings, GMC             : No warppoints
    Format settings, Matrix          : Default (H.263)
    Muxing mode                      : Packed bitstream
    Codec ID                         : DX50
    Codec ID/Hint                    : DivX 5
    Duration                         : 12mn 15s
    Bit rate                         : 6 001 Kbps
    Width                            : 1 280 pixels
    Height                           : 720 pixels
    Display aspect ratio             : 16:9
    Frame rate                       : 29.970 fps
    Color space                      : YUV
    Chroma subsampling               : 4:2:0
    Bit depth                        : 8 bits
    Scan type                        : Progressive
    Bits/(Pixel*Frame)               : 0.217
    Stream size                      : 526 MiB (97%)
    Writing library                  : DivX 6.8.5 (UTC 2009-08-20)
    
    Audio
    ID                               : 1
    Format                           : MPEG Audio
    Format version                   : Version 1
    Format profile                   : Layer 3
    Codec ID                         : 55
    Codec ID/Hint                    : MP3
    Duration                         : 12mn 15s
    Bit rate mode                    : Constant
    Bit rate                         : 192 Kbps
    Channel(s)                       : 2 channels
    Sampling rate                    : 48.0 KHz
    Video delay                      : 16ms
    Stream size                      : 16.8 MiB (3%)
    Alignment                        : Split accross interleaves
    Interleave, duration             : 33 ms (1.00 video frame)
    Interleave, preload duration     : 500 ms
    [​IMG]

    [​IMG][​IMG][​IMG][​IMG][​IMG]
    [​IMG][​IMG][​IMG][​IMG][​IMG][​IMG]




    DOWNLOAD FREE
    NO PASS!

    Code:
    http://smplace.com/premiumdownload**/dl/12505887/2c80cf5/Fucking_Machines_-_Dorothy_Black__Britney_1280x720__HQ_Gallery.part1.rar.html
    http://smplace.com/premiumdownload**/dl/12505889/98f73de/Fucking_Machines_-_Dorothy_Black__Britney_1280x720__HQ_Gallery.part2.rar.html
    http://smplace.com/premiumdownload**/dl/12505890/e82a5de/Fucking_Machines_-_Dorothy_Black__Britney_1280x720__HQ_Gallery.part3.rar.html
    http://smplace.com/premiumdownload**/dl/12505891/475c55a/Fucking_Machines_-_Dorothy_Black__Britney_1280x720__HQ_Gallery.part4.rar.html
    http://smplace.com/premiumdownload**/dl/12505893/93eabdb/Fucking_Machines_-_Dorothy_Black__Britney_1280x720__HQ_Gallery.part5.rar.html

    Fileboom Premium Account
    Keep2share Premium Account
     
LIFE TIME Keep2Share PREMIUM

Share This Page