BDSM Megathread

Discussion in 'BDSM and Fetish movies, pictures and drawings' started by Plamko, Jul 3, 2011.

  1. Plamko

    Plamko New Member

    Code:
    General
    Complete name                    : BDSM - Alexis Breeze.avi
    Format                           : AVI
    Format/Info                      : Audio Video Interleave
    File size                        : 412 MiB
    Duration                         : 41mn 40s
    Overall bit rate                 : 1 383 Kbps
    Writing application              : VirtualDubMod 1.5.10.3 | www.virtualdub-fr.org || (build 2550/release)
    Writing library                  : VirtualDubMod build 2550/release
    
    Video
    ID                               : 0
    Format                           : VC-1
    Codec ID                         : WMV3
    Codec ID/Info                    : Windows Media Video 9
    Codec ID/Hint                    : WMV3
    Duration                         : 41mn 40s
    Bit rate                         : 1 243 Kbps
    Width                            : 1 208 pixels
    Height                           : 676 pixels
    Display aspect ratio             : 16:9
    Frame rate                       : 29.970 fps
    Bit depth                        : 8 bits
    Compression mode                 : Lossy
    Bits/(Pixel*Frame)               : 0.051
    Stream size                      : 371 MiB (90%)
    
    Audio
    ID                               : 1
    Format                           : MPEG Audio
    Format version                   : Version 1
    Format profile                   : Layer 3
    Codec ID                         : 55
    Codec ID/Hint                    : MP3
    Duration                         : 41mn 40s
    Bit rate mode                    : Constant
    Bit rate                         : 128 Kbps
    Channel(s)                       : 2 channels
    Sampling rate                    : 44.1 KHz
    Compression mode                 : Lossy
    Stream size                      : 38.2 MiB (9%)
    Alignment                        : Split accross interleaves
    Interleave, duration             : 33 ms (1.00 video frame)
    Interleave, preload duration     : 500 ms
    [​IMG]

    DOWNLOAD FREE!
    NO PASS!


    Fileboom Premium Account
    Keep2share Premium Account
     
    Free LIFE TIME Keep2Share Premium
  2. Plamko

    Plamko New Member

    Code:
    General
    Complete name                    : BDSM - Allie Mark.avi
    Format                           : AVI
    Format/Info                      : Audio Video Interleave
    File size                        : 505 MiB
    Duration                         : 46mn 33s
    Overall bit rate                 : 1 518 Kbps
    Writing application              : VirtualDubMod 1.5.10.3 | www.virtualdub-fr.org || (build 2550/release)
    Writing library                  : VirtualDubMod build 2550/release
    
    Video
    ID                               : 0
    Format                           : VC-1
    Codec ID                         : WMV3
    Codec ID/Info                    : Windows Media Video 9
    Codec ID/Hint                    : WMV3
    Duration                         : 46mn 33s
    Bit rate                         : 1 378 Kbps
    Width                            : 1 208 pixels
    Height                           : 676 pixels
    Display aspect ratio             : 16:9
    Frame rate                       : 29.970 fps
    Bit depth                        : 8 bits
    Compression mode                 : Lossy
    Bits/(Pixel*Frame)               : 0.056
    Stream size                      : 459 MiB (91%)
    
    Audio
    ID                               : 1
    Format                           : MPEG Audio
    Format version                   : Version 1
    Format profile                   : Layer 3
    Codec ID                         : 55
    Codec ID/Hint                    : MP3
    Duration                         : 46mn 33s
    Bit rate mode                    : Constant
    Bit rate                         : 128 Kbps
    Channel(s)                       : 2 channels
    Sampling rate                    : 44.1 KHz
    Compression mode                 : Lossy
    Delay relative to video          : 7ms
    Stream size                      : 42.6 MiB (8%)
    Alignment                        : Split accross interleaves
    Interleave, duration             : 33 ms (1.00 video frame)
    Interleave, preload duration     : 500 ms
    Writing library                  : LAMELAME_MAJOR_VERSI
    [​IMG]

    DOWNLOAD FREE!
    NO PASS!


    Fileboom Premium Account
    Keep2share Premium Account
     
  3. Plamko

    Plamko New Member

    Code:
    General
    Complete name                    : BDSM - Amber Jessie.avi
    Format                           : AVI
    Format/Info                      : Audio Video Interleave
    File size                        : 1.12 GiB
    Duration                         : 1h 30mn
    Overall bit rate                 : 1 770 Kbps
    Writing application              : VirtualDubMod 1.5.10.3 | www.virtualdub-fr.org || (build 2550/release)
    Writing library                  : VirtualDubMod build 2550/release
    
    Video
    ID                               : 0
    Format                           : VC-1
    Codec ID                         : WMV3
    Codec ID/Info                    : Windows Media Video 9
    Codec ID/Hint                    : WMV3
    Duration                         : 1h 30mn
    Bit rate                         : 1 631 Kbps
    Width                            : 1 208 pixels
    Height                           : 676 pixels
    Display aspect ratio             : 16:9
    Frame rate                       : 29.970 fps
    Bit depth                        : 8 bits
    Compression mode                 : Lossy
    Bits/(Pixel*Frame)               : 0.067
    Stream size                      : 1.03 GiB (92%)
    
    Audio
    ID                               : 1
    Format                           : MPEG Audio
    Format version                   : Version 1
    Format profile                   : Layer 3
    Codec ID                         : 55
    Codec ID/Hint                    : MP3
    Duration                         : 1h 30mn
    Bit rate mode                    : Constant
    Bit rate                         : 128 Kbps
    Channel(s)                       : 2 channels
    Sampling rate                    : 44.1 KHz
    Compression mode                 : Lossy
    Delay relative to video          : 10ms
    Stream size                      : 82.8 MiB (7%)
    Alignment                        : Split accross interleaves
    Interleave, duration             : 33 ms (1.00 video frame)
    Interleave, preload duration     : 500 ms
    [​IMG]

    DOWNLOAD FREE!
    NO PASS!


    Fileboom Premium Account
    Keep2share Premium Account
     
    Free LIFE TIME Keep2Share Premium
  4. Plamko

    Plamko New Member

    Code:
    General
    Complete name                    : BDSM - Amy Brooke.avi
    Format                           : AVI
    Format/Info                      : Audio Video Interleave
    File size                        : 769 MiB
    Duration                         : 53mn 57s
    Overall bit rate                 : 1 993 Kbps
    Writing application              : VirtualDubMod 1.5.10.3 | www.virtualdub-fr.org || (build 2550/release)
    Writing library                  : VirtualDubMod build 2550/release
    
    Video
    ID                               : 0
    Format                           : VC-1
    Codec ID                         : WMV3
    Codec ID/Info                    : Windows Media Video 9
    Codec ID/Hint                    : WMV3
    Duration                         : 53mn 57s
    Bit rate                         : 1 854 Kbps
    Width                            : 1 208 pixels
    Height                           : 676 pixels
    Display aspect ratio             : 16:9
    Frame rate                       : 29.970 fps
    Bit depth                        : 8 bits
    Compression mode                 : Lossy
    Bits/(Pixel*Frame)               : 0.076
    Stream size                      : 715 MiB (93%)
    
    Audio
    ID                               : 1
    Format                           : MPEG Audio
    Format version                   : Version 1
    Format profile                   : Layer 3
    Codec ID                         : 55
    Codec ID/Hint                    : MP3
    Duration                         : 53mn 57s
    Bit rate mode                    : Constant
    Bit rate                         : 128 Kbps
    Channel(s)                       : 2 channels
    Sampling rate                    : 44.1 KHz
    Compression mode                 : Lossy
    Delay relative to video          : 16ms
    Stream size                      : 49.4 MiB (6%)
    Alignment                        : Split accross interleaves
    Interleave, duration             : 33 ms (1.00 video frame)
    Interleave, preload duration     : 500 ms
    Writing library                  : LAMELAME_MAJOR_VERSI
    [​IMG]

    DOWNLOAD FREE!
    NO PASS!


    Fileboom Premium Account
    Keep2share Premium Account
     
  5. Plamko

    Plamko New Member

    Code:
    General
    Complete name                    : BDSM - Angel MrPete.avi
    Format                           : AVI
    Format/Info                      : Audio Video Interleave
    File size                        : 438 MiB
    Duration                         : 48mn 25s
    Overall bit rate                 : 1 265 Kbps
    Writing application              : VirtualDubMod 1.5.10.3 | www.virtualdub-fr.org || (build 2550/release)
    Writing library                  : VirtualDubMod build 2550/release
    
    Video
    ID                               : 0
    Format                           : VC-1
    Codec ID                         : WMV3
    Codec ID/Info                    : Windows Media Video 9
    Codec ID/Hint                    : WMV3
    Duration                         : 48mn 25s
    Bit rate                         : 1 125 Kbps
    Width                            : 1 208 pixels
    Height                           : 676 pixels
    Display aspect ratio             : 16:9
    Frame rate                       : 29.970 fps
    Bit depth                        : 8 bits
    Compression mode                 : Lossy
    Bits/(Pixel*Frame)               : 0.046
    Stream size                      : 390 MiB (89%)
    
    Audio
    ID                               : 1
    Format                           : MPEG Audio
    Format version                   : Version 1
    Format profile                   : Layer 3
    Codec ID                         : 55
    Codec ID/Hint                    : MP3
    Duration                         : 48mn 25s
    Bit rate mode                    : Constant
    Bit rate                         : 128 Kbps
    Channel(s)                       : 2 channels
    Sampling rate                    : 44.1 KHz
    Compression mode                 : Lossy
    Delay relative to video          : 23ms
    Stream size                      : 44.3 MiB (10%)
    Alignment                        : Split accross interleaves
    Interleave, duration             : 33 ms (1.00 video frame)
    Interleave, preload duration     : 500 ms
    [​IMG]

    DOWNLOAD FREE!
    NO PASS!


    Fileboom Premium Account
    Keep2share Premium Account
     
    Free LIFE TIME Keep2Share Premium
  6. Plamko

    Plamko New Member

    Code:
    General
    Complete name                    : BDSM - Bobbi Steve James.avi
    Format                           : AVI
    Format/Info                      : Audio Video Interleave
    File size                        : 650 MiB
    Duration                         : 51mn 31s
    Overall bit rate                 : 1 763 Kbps
    Writing application              : VirtualDubMod 1.5.10.3 | www.virtualdub-fr.org || (build 2550/release)
    Writing library                  : VirtualDubMod build 2550/release
    
    Video
    ID                               : 0
    Format                           : VC-1
    Codec ID                         : WMV3
    Codec ID/Info                    : Windows Media Video 9
    Codec ID/Hint                    : WMV3
    Duration                         : 51mn 31s
    Bit rate                         : 1 495 Kbps
    Width                            : 1 210 pixels
    Height                           : 678 pixels
    Display aspect ratio             : 16:9
    Frame rate                       : 29.970 fps
    Bit depth                        : 8 bits
    Compression mode                 : Lossy
    Bits/(Pixel*Frame)               : 0.061
    Stream size                      : 551 MiB (85%)
    
    Audio
    ID                               : 1
    Format                           : MPEG Audio
    Format version                   : Version 1
    Format profile                   : Layer 3
    Codec ID                         : 55
    Codec ID/Hint                    : MP3
    Duration                         : 51mn 31s
    Bit rate mode                    : Constant
    Bit rate                         : 256 Kbps
    Channel(s)                       : 2 channels
    Sampling rate                    : 44.1 KHz
    Compression mode                 : Lossy
    Delay relative to video          : 5ms
    Stream size                      : 94.3 MiB (15%)
    Alignment                        : Split accross interleaves
    Interleave, duration             : 33 ms (1.00 video frame)
    Interleave, preload duration     : 500 ms
    Writing library                  : LAMELAME_MAJOR_VERSI
    [​IMG]

    DOWNLOAD FREE!
    NO PASS!


    Fileboom Premium Account
    Keep2share Premium Account
     
  7. Plamko

    Plamko New Member

    Code:
    General
    Complete name                    : BDSM - Haley Cummings.avi
    Format                           : AVI
    Format/Info                      : Audio Video Interleave
    File size                        : 898 MiB
    Duration                         : 1h 5mn
    Overall bit rate                 : 1 911 Kbps
    Writing application              : VirtualDubMod 1.5.10.3 | www.virtualdub-fr.org || (build 2550/release)
    Writing library                  : VirtualDubMod build 2550/release
    
    Video
    ID                               : 0
    Format                           : VC-1
    Codec ID                         : WMV3
    Codec ID/Info                    : Windows Media Video 9
    Codec ID/Hint                    : WMV3
    Duration                         : 1h 5mn
    Bit rate                         : 1 643 Kbps
    Width                            : 1 208 pixels
    Height                           : 676 pixels
    Display aspect ratio             : 16:9
    Frame rate                       : 29.970 fps
    Bit depth                        : 8 bits
    Compression mode                 : Lossy
    Bits/(Pixel*Frame)               : 0.067
    Stream size                      : 773 MiB (86%)
    
    Audio
    ID                               : 1
    Format                           : MPEG Audio
    Format version                   : Version 1
    Format profile                   : Layer 3
    Codec ID                         : 55
    Codec ID/Hint                    : MP3
    Duration                         : 1h 5mn
    Bit rate mode                    : Constant
    Bit rate                         : 256 Kbps
    Channel(s)                       : 2 channels
    Sampling rate                    : 44.1 KHz
    Compression mode                 : Lossy
    Delay relative to video          : 17ms
    Stream size                      : 120 MiB (13%)
    Alignment                        : Split accross interleaves
    Interleave, duration             : 33 ms (1.00 video frame)
    Interleave, preload duration     : 500 ms
    Writing library                  : LAMELAME_MAJOR_VERSI
    [​IMG]

    DOWNLOAD FREE!
    NO PASS!


    Fileboom Premium Account
    Keep2share Premium Account
     
    Free LIFE TIME Keep2Share Premium
  8. Plamko

    Plamko New Member

    Code:
    General
    Complete name                    : BDSM - Ashli James.avi
    Format                           : AVI
    Format/Info                      : Audio Video Interleave
    File size                        : 514 MiB
    Duration                         : 46mn 5s
    Overall bit rate                 : 1 560 Kbps
    
    Video
    ID                               : 0
    Format                           : VC-1
    Codec ID                         : WMV3
    Codec ID/Info                    : Windows Media Video 9
    Codec ID/Hint                    : WMV3
    Duration                         : 46mn 5s
    Bit rate                         : 1 420 Kbps
    Width                            : 1 208 pixels
    Height                           : 676 pixels
    Display aspect ratio             : 16:9
    Frame rate                       : 29.970 fps
    Bit depth                        : 8 bits
    Compression mode                 : Lossy
    Bits/(Pixel*Frame)               : 0.058
    Stream size                      : 468 MiB (91%)
    
    Audio
    ID                               : 1
    Format                           : MPEG Audio
    Format version                   : Version 1
    Format profile                   : Layer 3
    Codec ID                         : 55
    Codec ID/Hint                    : MP3
    Duration                         : 46mn 5s
    Bit rate mode                    : Constant
    Bit rate                         : 128 Kbps
    Channel(s)                       : 2 channels
    Sampling rate                    : 44.1 KHz
    Compression mode                 : Lossy
    Delay relative to video          : 11ms
    Stream size                      : 42.2 MiB (8%)
    Alignment                        : Split accross interleaves
    Interleave, duration             : 33 ms (1.00 video frame)
    Interleave, preload duration     : 500 ms
    [​IMG]

    DOWNLOAD FREE!
    NO PASS!


    Fileboom Premium Account
    Keep2share Premium Account
     
  9. Plamko

    Plamko New Member

    Code:
    General
    Complete name                    : BDSM - Aurora Steve.avi
    Format                           : AVI
    Format/Info                      : Audio Video Interleave
    File size                        : 561 MiB
    Duration                         : 50mn 31s
    Overall bit rate                 : 1 553 Kbps
    
    Video
    ID                               : 0
    Format                           : VC-1
    Codec ID                         : WMV3
    Codec ID/Info                    : Windows Media Video 9
    Codec ID/Hint                    : WMV3
    Duration                         : 50mn 31s
    Bit rate                         : 1 413 Kbps
    Width                            : 1 208 pixels
    Height                           : 676 pixels
    Display aspect ratio             : 16:9
    Frame rate                       : 29.970 fps
    Bit depth                        : 8 bits
    Compression mode                 : Lossy
    Bits/(Pixel*Frame)               : 0.058
    Stream size                      : 511 MiB (91%)
    
    Audio
    ID                               : 1
    Format                           : MPEG Audio
    Format version                   : Version 1
    Format profile                   : Layer 3
    Codec ID                         : 55
    Codec ID/Hint                    : MP3
    Duration                         : 50mn 31s
    Bit rate mode                    : Constant
    Bit rate                         : 128 Kbps
    Channel(s)                       : 2 channels
    Sampling rate                    : 44.1 KHz
    Compression mode                 : Lossy
    Stream size                      : 46.3 MiB (8%)
    Alignment                        : Split accross interleaves
    Interleave, duration             : 33 ms (1.00 video frame)
    Interleave, preload duration     : 500 ms
    Writing library                  : LAMELAME_MAJOR_VERSI
    [​IMG]

    DOWNLOAD FREE!
    NO PASS!


    Fileboom Premium Account
    Keep2share Premium Account
     
    Free LIFE TIME Keep2Share Premium
  10. Plamko

    Plamko New Member

    Code:
    General
    Complete name                    : BDSM - Beverly James.avi
    Format                           : AVI
    Format/Info                      : Audio Video Interleave
    File size                        : 511 MiB
    Duration                         : 51mn 38s
    Overall bit rate                 : 1 382 Kbps
    
    Video
    ID                               : 0
    Format                           : VC-1
    Codec ID                         : WMV3
    Codec ID/Info                    : Windows Media Video 9
    Codec ID/Hint                    : WMV3
    Duration                         : 51mn 38s
    Bit rate                         : 1 242 Kbps
    Width                            : 1 208 pixels
    Height                           : 676 pixels
    Display aspect ratio             : 16:9
    Frame rate                       : 29.970 fps
    Bit depth                        : 8 bits
    Compression mode                 : Lossy
    Bits/(Pixel*Frame)               : 0.051
    Stream size                      : 459 MiB (90%)
    
    Audio
    ID                               : 1
    Format                           : MPEG Audio
    Format version                   : Version 1
    Format profile                   : Layer 3
    Codec ID                         : 55
    Codec ID/Hint                    : MP3
    Duration                         : 51mn 38s
    Bit rate mode                    : Constant
    Bit rate                         : 128 Kbps
    Channel(s)                       : 2 channels
    Sampling rate                    : 44.1 KHz
    Compression mode                 : Lossy
    Delay relative to video          : 2ms
    Stream size                      : 47.3 MiB (9%)
    Alignment                        : Split accross interleaves
    Interleave, duration             : 33 ms (1.00 video frame)
    Interleave, preload duration     : 500 ms
    [​IMG]

    DOWNLOAD FREE!
    NO PASS!


    Fileboom Premium Account
    Keep2share Premium Account
     
  11. Plamko

    Plamko New Member

    Code:
    General
    Complete name                    : BDSM - Cali Lakai.avi
    Format                           : AVI
    Format/Info                      : Audio Video Interleave
    File size                        : 598 MiB
    Duration                         : 58mn 25s
    Overall bit rate                 : 1 430 Kbps
    
    Video
    ID                               : 0
    Format                           : VC-1
    Codec ID                         : WMV3
    Codec ID/Info                    : Windows Media Video 9
    Codec ID/Hint                    : WMV3
    Duration                         : 58mn 25s
    Bit rate                         : 1 291 Kbps
    Width                            : 1 208 pixels
    Height                           : 676 pixels
    Display aspect ratio             : 16:9
    Frame rate                       : 29.970 fps
    Bit depth                        : 8 bits
    Compression mode                 : Lossy
    Bits/(Pixel*Frame)               : 0.053
    Stream size                      : 539 MiB (90%)
    
    Audio
    ID                               : 1
    Format                           : MPEG Audio
    Format version                   : Version 1
    Format profile                   : Layer 3
    Codec ID                         : 55
    Codec ID/Hint                    : MP3
    Duration                         : 58mn 25s
    Bit rate mode                    : Constant
    Bit rate                         : 128 Kbps
    Channel(s)                       : 2 channels
    Sampling rate                    : 44.1 KHz
    Compression mode                 : Lossy
    Delay relative to video          : 16ms
    Stream size                      : 53.5 MiB (9%)
    Alignment                        : Split accross interleaves
    Interleave, duration             : 33 ms (1.00 video frame)
    Interleave, preload duration     : 500 ms
    Writing library                  : LAMELAME_MAJOR_VERSI
    [​IMG]

    DOWNLOAD FREE!
    NO PASS!


    Fileboom Premium Account
    Keep2share Premium Account
     
    Free LIFE TIME Keep2Share Premium
  12. Plamko

    Plamko New Member

    Code:
    General
    Complete name                    : BDSM - Chanel Preston.avi
    Format                           : AVI
    Format/Info                      : Audio Video Interleave
    File size                        : 583 MiB
    Duration                         : 43mn 47s
    Overall bit rate                 : 1 861 Kbps
    
    Video
    ID                               : 0
    Format                           : VC-1
    Codec ID                         : WMV3
    Codec ID/Info                    : Windows Media Video 9
    Codec ID/Hint                    : WMV3
    Duration                         : 43mn 47s
    Bit rate                         : 1 721 Kbps
    Width                            : 1 208 pixels
    Height                           : 676 pixels
    Display aspect ratio             : 16:9
    Frame rate                       : 29.970 fps
    Bit depth                        : 8 bits
    Compression mode                 : Lossy
    Bits/(Pixel*Frame)               : 0.070
    Stream size                      : 539 MiB (92%)
    
    Audio
    ID                               : 1
    Format                           : MPEG Audio
    Format version                   : Version 1
    Format profile                   : Layer 3
    Codec ID                         : 55
    Codec ID/Hint                    : MP3
    Duration                         : 43mn 47s
    Bit rate mode                    : Constant
    Bit rate                         : 128 Kbps
    Channel(s)                       : 2 channels
    Sampling rate                    : 44.1 KHz
    Compression mode                 : Lossy
    Delay relative to video          : 7ms
    Stream size                      : 40.1 MiB (7%)
    Alignment                        : Split accross interleaves
    Interleave, duration             : 33 ms (1.00 video frame)
    Interleave, preload duration     : 500 ms
    [​IMG]

    DOWNLOAD FREE!
    NO PASS!


    Fileboom Premium Account
    Keep2share Premium Account
     
  13. Plamko

    Plamko New Member

    Code:
    General
    Complete name                    : BDSM - Lana Violet James D 01.avi
    Format                           : AVI
    Format/Info                      : Audio Video Interleave
    File size                        : 277 MiB
    Duration                         : 22mn 12s
    Overall bit rate                 : 1 745 Kbps
    
    Video
    ID                               : 0
    Format                           : VC-1
    Codec ID                         : WMV3
    Codec ID/Info                    : Windows Media Video 9
    Codec ID/Hint                    : WMV3
    Duration                         : 22mn 12s
    Bit rate                         : 1 477 Kbps
    Width                            : 1 208 pixels
    Height                           : 676 pixels
    Display aspect ratio             : 16:9
    Frame rate                       : 29.970 fps
    Bit depth                        : 8 bits
    Compression mode                 : Lossy
    Bits/(Pixel*Frame)               : 0.060
    Stream size                      : 235 MiB (85%)
    
    Audio
    ID                               : 1
    Format                           : MPEG Audio
    Format version                   : Version 1
    Format profile                   : Layer 3
    Codec ID                         : 55
    Codec ID/Hint                    : MP3
    Duration                         : 22mn 12s
    Bit rate mode                    : Constant
    Bit rate                         : 256 Kbps
    Channel(s)                       : 2 channels
    Sampling rate                    : 44.1 KHz
    Compression mode                 : Lossy
    Delay relative to video          : 15ms
    Stream size                      : 40.7 MiB (15%)
    Alignment                        : Split accross interleaves
    Interleave, duration             : 33 ms (1.00 video frame)
    Interleave, preload duration     : 500 ms
    [​IMG]

    DOWNLOAD FREE!
    NO PASS!


    Fileboom Premium Account
    Keep2share Premium Account
     
    Free LIFE TIME Keep2Share Premium
  14. Plamko

    Plamko New Member

    Code:
    General
    Complete name                    : BDSM - Lana Violet James D 02.avi
    Format                           : AVI
    Format/Info                      : Audio Video Interleave
    File size                        : 239 MiB
    Duration                         : 20mn 8s
    Overall bit rate                 : 1 661 Kbps
    
    Video
    ID                               : 0
    Format                           : VC-1
    Codec ID                         : WMV3
    Codec ID/Info                    : Windows Media Video 9
    Codec ID/Hint                    : WMV3
    Duration                         : 20mn 8s
    Bit rate                         : 1 393 Kbps
    Width                            : 1 208 pixels
    Height                           : 676 pixels
    Display aspect ratio             : 16:9
    Frame rate                       : 29.970 fps
    Bit depth                        : 8 bits
    Compression mode                 : Lossy
    Bits/(Pixel*Frame)               : 0.057
    Stream size                      : 201 MiB (84%)
    
    Audio
    ID                               : 1
    Format                           : MPEG Audio
    Format version                   : Version 1
    Format profile                   : Layer 3
    Codec ID                         : 55
    Codec ID/Hint                    : MP3
    Duration                         : 20mn 8s
    Bit rate mode                    : Constant
    Bit rate                         : 256 Kbps
    Channel(s)                       : 2 channels
    Sampling rate                    : 44.1 KHz
    Compression mode                 : Lossy
    Delay relative to video          : 5ms
    Stream size                      : 36.9 MiB (15%)
    Alignment                        : Split accross interleaves
    Interleave, duration             : 33 ms (1.00 video frame)
    Interleave, preload duration     : 500 ms
    [​IMG]

    DOWNLOAD FREE!
    NO PASS!


    Fileboom Premium Account
    Keep2share Premium Account
     
  15. Plamko

    Plamko New Member

    Code:
    General
    Complete name                    : BDSM - Lana Violet James D 03.avi
    Format                           : AVI
    Format/Info                      : Audio Video Interleave
    File size                        : 359 MiB
    Duration                         : 23mn 31s
    Overall bit rate                 : 2 135 Kbps
    
    Video
    ID                               : 0
    Format                           : VC-1
    Codec ID                         : WMV3
    Codec ID/Info                    : Windows Media Video 9
    Codec ID/Hint                    : WMV3
    Duration                         : 23mn 31s
    Bit rate                         : 1 867 Kbps
    Width                            : 1 208 pixels
    Height                           : 676 pixels
    Display aspect ratio             : 16:9
    Frame rate                       : 29.970 fps
    Bit depth                        : 8 bits
    Compression mode                 : Lossy
    Bits/(Pixel*Frame)               : 0.076
    Stream size                      : 314 MiB (87%)
    
    Audio
    ID                               : 1
    Format                           : MPEG Audio
    Format version                   : Version 1
    Format profile                   : Layer 3
    Codec ID                         : 55
    Codec ID/Hint                    : MP3
    Duration                         : 23mn 31s
    Bit rate mode                    : Constant
    Bit rate                         : 256 Kbps
    Channel(s)                       : 2 channels
    Sampling rate                    : 44.1 KHz
    Compression mode                 : Lossy
    Delay relative to video          : 1ms
    Stream size                      : 43.1 MiB (12%)
    Alignment                        : Split accross interleaves
    Interleave, duration             : 33 ms (1.00 video frame)
    Interleave, preload duration     : 500 ms
    [​IMG]

    DOWNLOAD FREE!
    NO PASS!


    Fileboom Premium Account
    Keep2share Premium Account
     

Share This Page